当前位置:邓丽君论坛BBS

说明 

首页 | 邓丽君档案 | 邓丽君生平 | 筠园 | 邓丽君照片 | 邓丽君歌曲 | 邓丽君歌曲伴奏 | 邓丽君视频 | 影音珍藏 | 邓丽君专辑 | 君曲乐辑 | 待审 | 资源统计 | 献花给邓丽君
关于 | F A Q | 郑重声明 | 联系站长 | 域名空间 | 公共FTP | 公共信箱 | 相关网站 | 歌谱图片 | 翻唱君曲 | 怀念诗文 | 怀念作品 | 山寨版 | 君曲排行 | 个人文件夹 | 论坛
用户名: 密码: 注册 取回密码 论坛已经开通,欢迎大家踊跃灌水!请您先注册成为会员!
论坛分类
· 站务公告 ·FAQ
· 月亮之心
· 网友交流
· 灌水乐园
· 歌谱专栏
· 照片专栏
· 翻唱专栏
· 视频专栏
· 影音珍藏
· 专辑专栏
· 君曲乐辑
· 怀念诗文
· 怀念作品
歌曲上传 ·待审
网友信息
短信管理
资料修改
个性设置
我的最爱
 
帮 助
退 出
今日献花(6)前6名
倾听君音
36.110.199.*
42.101.216.*
fansonro
cat099
脆弱的心

1977年新桥演唱会[wav格式] - 怀念邓丽君 - 福建·漳州·芗江居 - 邓丽君论坛BBS - 歌曲MP3下载 - 演奏曲MP3 - TERESA TENG
楼主 1977年新桥演唱会[wav格式] 收藏到个人文件夹 回复:28 阅读:11875

怀念邓丽君-音频&资料



下载(文件1):1977年新桥演唱会[wav格式]


内含WAV格式文件及cue文件,封面图


1977年新桥演唱会

曲目:

01. ふるさとはどこですか
02. 空港  
03. 女の生きがい 
04. 雪化粧
05. ふるさとの歌めぐり(メドレー)  
     長崎は今日も雨だった
     五木の子守唄
     中国地方の子守唄
     木曽节
     旅姿三人男
     花笠音頭
     襟裳岬 
06. 懐かしのロックン?ロ-ル?メドレー(メドレー)  
     ダイアナ(DIANA)
     スピーティー.ゴンザレス(SPEEDY GONZALES)
     オー.キャロル(OH CAROL)
     悲しき雨音(RHYTHM OF THE RAIN)
     悲しき16才(HEARTACHES AT SWEET SIXTEEN)
     恋の売り込み(I'M GONNA KNOCK ON YOUR DOOR)
     カラーに口紅(LIPSTICK ON YOUR COLLAR)  
07. フォー.ワンス.イン.マイ.ライフ(FOR ONCE IN MY LIFE)  
08. フィーリング(FEELING) 
09. 阿里山的姑娘(高山青) 
10. 何日君再來  
11. アカシアの夢 
12. 夜のフェリーボート 
13. 雨に咲く花(B.G.M) 
14. ふるさとはどこですか










作者:一见钟情(9)   国际红星  发表于:2008-10-17 0:04:00 专辑专栏 收藏到个人文件夹  到顶部  返回

1楼

回复:1977年新桥演唱会[wav格式]
是谁传的?报上名来
作者:站长  chenag.com 发表于:2008-10-17 0:10:00 收藏到个人文件夹  到顶部  返回

2楼

回复:1977年新桥演唱会[wav格式]
无名英雄,感谢您的上传!!!谢谢站长.
草原羔羊
作者:草原羔羊(1138)   一代歌后  发表于:2008-10-17 0:22:00 收藏到个人文件夹  到顶部  返回

3楼

回复:1977年新桥演唱会[wav格式]

草原羔羊苦苦搜寻多年的这版阿里山的姑娘(高山青)终于寻找到了,1978年我们家属院的一个哥哥做海员,从新加坡带回来的就是这个专辑(磁带),草原羔羊非常清楚地记得他说:在新加坡和香港每天早晨大喇叭里放的第一首歌都是邓丽君所演唱的这首-阿里山的姑娘(高山青),并且连续播放十几遍!


30年后的今天,草原羔羊再次聆听此首阿里山的姑娘,心情无比激动,再次感谢芗江居和上传者,谢谢!谢谢!!谢谢!!!

草原羔羊
作者:草原羔羊(1138)   一代歌后  发表于:2008-10-17 1:17:00 收藏到个人文件夹  到顶部  返回

4楼

回复:1977年新桥演唱会[wav格式]

赞的。众里寻他千百度,那人却在怀念丽君处。感谢感谢!!!

但愿人长久,千里共婵娟。
作者:但愿人长久(472)   一代歌后  发表于:2008-10-17 15:56:00 收藏到个人文件夹  到顶部  返回

5楼

回复:1977年新桥演唱会[wav格式]

太感谢了

作者:SellonChou(29)   当红歌手  发表于:2008-10-18 19:30:00 收藏到个人文件夹  到顶部  返回

6楼

回复:1977年新桥演唱会[wav格式]

本人几天前下载了1977年新桥演唱会[wav格式],但下载后只能打开图片但不能打开及收听音频!


请大家帮帮我,谢谢!

作者:eeyu(4)   出道新人  发表于:2008-12-8 0:52:00 收藏到个人文件夹  到顶部  返回

7楼

回复:1977年新桥演唱会[wav格式]

請問大家下載後都能正常解開壓縮嗎?


我重新下載兩次,依舊還是沒辦法解開wav檔><

作者:wezard(3)   出道新人  发表于:2009-3-4 20:04:00 收藏到个人文件夹  到顶部  返回

8楼

回复:1977年新桥演唱会[wav格式]
好东西~~谢谢哈~~
作者:桃子(69)   天王巨星  发表于:2009-3-4 21:16:00 收藏到个人文件夹  到顶部  返回

9楼

回复:1977年新桥演唱会[wav格式]
是什么东西呀,视频,还是音频呀
作者:人间后花园(109)   国际红星  发表于:2009-3-5 20:21:00 收藏到个人文件夹  到顶部  返回

10楼

回复:1977年新桥演唱会[wav格式]

是音频呀,呵呵。珍贵收藏了

作者:人间后花园(109)   国际红星  发表于:2009-3-5 20:59:00 收藏到个人文件夹  到顶部  返回

11楼

回复:1977年新桥演唱会[wav格式]
.
草原羔羊
作者:草原羔羊(1138)   一代歌后  发表于:2009-5-6 4:53:00 收藏到个人文件夹  到顶部  返回

12楼

回复:1977年新桥演唱会[wav格式]
应该是与[鄧麗君日本寶麗多全集5-1977-07新桥演唱会(日本环球首度复刻版)]http://dlj.chenag.com/bbs/info_op.asp?id=11268重复的.
草原羔羊
作者:草原羔羊(1138)   一代歌后  发表于:2009-5-6 8:25:00 收藏到个人文件夹  到顶部  返回

13楼

回复:1977年新桥演唱会[wav格式]

草原羔羊下载,比较比较cue文件,估计不如我做得仔细.

草原羔羊
作者:草原羔羊(1138)   一代歌后  发表于:2009-5-6 8:33:00 收藏到个人文件夹  到顶部  返回

14楼

回复:1977年新桥演唱会[wav格式]

一见钟情的cue:


PERFORMER "邓丽君"
TITLE "邓丽君新橋演唱会"
FILE "CDImage.wav" WAVE
  TRACK 01 AUDIO
    TITLE "ふらさとはどこですか"
    PERFORMER "邓丽君"
    INDEX 01 00:00:00
  TRACK 02 AUDIO
    TITLE "空港"
    PERFORMER "邓丽君"
    INDEX 01 03:08:65
  TRACK 03 AUDIO
    TITLE "女の生きがい"
    PERFORMER "邓丽君"
    INDEX 01 05:45:34
  TRACK 04 AUDIO
    TITLE "雪花粧"
    PERFORMER "邓丽君"
    INDEX 01 06:56:33
  TRACK 05 AUDIO
    TITLE "ふるさとの歌めぐり"
    PERFORMER "邓丽君"
    INDEX 01 09:19:68
  TRACK 06 AUDIO
    TITLE "懐しのロックン·ロール·メドレー"
    PERFORMER "邓丽君"
    INDEX 01 15:54:66
  TRACK 07 AUDIO
    TITLE "フォー.ウンス.イン.マイ.ライフ"
    PERFORMER "邓丽君"
    INDEX 01 23:30:72
  TRACK 08 AUDIO
    TITLE "フィーリング"
    PERFORMER "邓丽君"
    INDEX 01 25:54:41
  TRACK 09 AUDIO
    TITLE "阿里山的姑娘(高山青)"
    PERFORMER "邓丽君"
    INDEX 00 30:11:16
    INDEX 01 30:14:08
  TRACK 10 AUDIO
    TITLE "何日君再来"
    PERFORMER "邓丽君"
    INDEX 01 33:05:04
  TRACK 11 AUDIO
    TITLE "アカシアの夢"
    PERFORMER "邓丽君"
    INDEX 01 35:59:45
  TRACK 12 AUDIO
    TITLE "夜のフェリーボート"
    PERFORMER "邓丽君"
    INDEX 01 38:56:66
  TRACK 13 AUDIO
    TITLE "雨に咲く花(B.G.M)"
    PERFORMER "邓丽君"
    INDEX 01 42:17:70
  TRACK 14 AUDIO
    TITLE "ふるさとはどこですか"
    PERFORMER "邓丽君"
    INDEX 01 43:35:24

草原羔羊
作者:草原羔羊(1138)   一代歌后  发表于:2009-5-6 8:48:00 收藏到个人文件夹  到顶部  返回

15楼

回复:1977年新桥演唱会[wav格式]

草原羔羊的:


REM GENRE Music
REM DATE 1977年7月10日
REM COMMENT 批量下载:【草原羔羊网】
PERFORMER "鄧麗君 【草原羔羊珍藏】"
TITLE "鄧麗君新橋演唱會ファースト コンサート[寶麗多全集5 日本環球復刻版]"
FILE "邓丽君1977年新桥演唱会.wav" WAVE
  TRACK 01 AUDIO
    TITLE "ふるさとはどこですか (開始曲)小村之戀"
    INDEX 01 00:00:00
  TRACK 02 AUDIO
    TITLE "空港(情人的關懷)"
    INDEX 01 03:08:65
  TRACK 03 AUDIO
    TITLE "女の生きがい(祈望)"
    INDEX 01 05:45:34
  TRACK 04 AUDIO
    TITLE "雪化粧(冬之戀情)"
    INDEX 01 06:56:33
  TRACK 05 AUDIO
    TITLE "ふるさとの歌めぐり日語聯唱"
    INDEX 01 09:19:68
  TRACK 06 AUDIO
    TITLE "懐しのロックン·ロール·メドレー 英文聯唱"
    INDEX 01 15:54:66
  TRACK 07 AUDIO
    TITLE "For Once In My Life"
    INDEX 01 23:30:72
  TRACK 08 AUDIO
    TITLE "Feelings"
    INDEX 01 25:54:41
  TRACK 09 AUDIO
    TITLE "阿裏山的姑娘(高山青)"
    INDEX 00 30:11:16
    INDEX 01 30:14:08
  TRACK 10 AUDIO
    TITLE "何日君再來"
    INDEX 01 33:05:04
  TRACK 11 AUDIO
    TITLE "アカシアの夢(問自己)"
    INDEX 01 35:59:45
  TRACK 12 AUDIO
    TITLE "夜のフェリーボート(你在我心中)"
    INDEX 01 38:56:66
  TRACK 13 AUDIO
    TITLE "雨に咲く花(B.G.M)雨夜花"
    INDEX 01 42:17:70
  TRACK 14 AUDIO
    TITLE "ふるさとはどこですか (結束曲)小村之戀"
    INDEX 01 43:35:24

草原羔羊
作者:草原羔羊(1138)   一代歌后  发表于:2009-5-6 8:49:00 收藏到个人文件夹  到顶部  返回

16楼

回复:1977年新桥演唱会[wav格式]
文件完全相同,站长删除一个吧.
草原羔羊
作者:草原羔羊(1138)   一代歌后  发表于:2009-5-6 8:56:00 收藏到个人文件夹  到顶部  返回

17楼

回复:1977年新桥演唱会[wav格式]

整理日志[草原羔羊]


REM GENRE Music
REM DATE 1977年7月10日
PERFORMER "鄧麗君"
TITLE "鄧麗君新橋演唱會ファースト コンサート[寶麗多全集5 日本環球復刻版]"
FILE "[鄧麗君日本寶麗多全集5-新橋演唱會].ape" WAVE
  TRACK 01 AUDIO
    TITLE "ふるさとはどこですか(開始曲)小村之戀"
    PERFORMER "鄧麗君"
    INDEX 01 00:00:00
  TRACK 02 AUDIO
    TITLE "空港(情人的關懷)"
    PERFORMER "鄧麗君"
    INDEX 01 03:08:65
  TRACK 03 AUDIO
    TITLE "女の生きがい(祈望)"
    PERFORMER "鄧麗君"
    INDEX 01 05:45:34
  TRACK 04 AUDIO
    TITLE "雪化粧(冬之戀情)"
    PERFORMER "鄧麗君"
    INDEX 01 06:56:33
  TRACK 05 AUDIO
    TITLE "日語聯唱1,(長崎は今日も雨だった淚的小雨)2,(五木の子守唄)3,(中國地方の子守唄)4,(木曽節)5,(旅姿三人男)6,(花笠音頭)7,(襟裳岬)"
    PERFORMER "鄧麗君"
    INDEX 01 09:19:68
  TRACK 06 AUDIO
    TITLE "英文聯唱1,(DIANA音樂)2,(SPEEDY GONZALES)3,(OH CAROL噢開羅)4,(RHYTHM OF THE RAIN雨的節奏)5,(HEARTACHES AT SWEET SIXTEEN)6,(I'M GONNA KNOCK ON YOUR DOOR)7,(LIPSTICK ON YOUR COLLAR)"
    PERFORMER "鄧麗君"
    INDEX 01 15:54:66
  TRACK 07 AUDIO
    TITLE "FOR ONCE IN MY LIFE"
    PERFORMER "鄧麗君"
    INDEX 01 23:30:72
  TRACK 08 AUDIO
    TITLE "FEELING"
    PERFORMER "鄧麗君"
    INDEX 01 25:54:41
  TRACK 09 AUDIO
    TITLE "阿裏山的姑娘(高山青)"
    PERFORMER "鄧麗君"
    INDEX 00 30:11:07
    INDEX 01 30:14:08
  TRACK 10 AUDIO
    TITLE "何日君再來"
    PERFORMER "鄧麗君"
    INDEX 01 33:05:04
  TRACK 11 AUDIO
    TITLE "アカシアの夢(問自己)"
    PERFORMER "鄧麗君"
    INDEX 01 35:59:45
  TRACK 12 AUDIO
    TITLE "夜のフェリーボート(你在我心中)"
    PERFORMER "鄧麗君"
    INDEX 01 38:56:66
  TRACK 13 AUDIO
    TITLE "雨に咲く花(雨夜花)B.G.M"
    PERFORMER "鄧麗君"
    INDEX 01 42:17:70
  TRACK 14 AUDIO
    TITLE "ふるさとはどこですか(結束曲)小村之戀"
    PERFORMER "鄧麗君"
    INDEX 01 43:35:24

草原羔羊
作者:草原羔羊(1138)   一代歌后  发表于:2009-5-6 9:07:00 收藏到个人文件夹  到顶部  返回

18楼

回复:1977年新桥演唱会[wav格式]

一见钟情的cue更改为:


REM GENRE Music
REM DATE 1977年7月10日
PERFORMER "鄧麗君"
TITLE "鄧麗君新橋演唱會ファースト コンサート[寶麗多全集5 日本環球復刻版]"
FILE "CDImage.wav" WAVE
  TRACK 01 AUDIO
    TITLE "ふるさとはどこですか(開始曲)小村之戀"
    PERFORMER "鄧麗君"
    INDEX 01 00:00:00
  TRACK 02 AUDIO
    TITLE "空港(情人的關懷)"
    PERFORMER "鄧麗君"
    INDEX 01 03:08:65
  TRACK 03 AUDIO
    TITLE "女の生きがい(祈望)"
    PERFORMER "鄧麗君"
    INDEX 01 05:45:34
  TRACK 04 AUDIO
    TITLE "雪化粧(冬之戀情)"
    PERFORMER "鄧麗君"
    INDEX 01 06:56:33
  TRACK 05 AUDIO
    TITLE "日語聯唱1,(長崎は今日も雨だった淚的小雨)2,(五木の子守唄)3,(中國地方の子守唄)4,(木曽節)5,(旅姿三人男)6,(花笠音頭)7,(襟裳岬)"
    PERFORMER "鄧麗君"
    INDEX 01 09:19:68
  TRACK 06 AUDIO
    TITLE "英文聯唱1,(DIANA音樂)2,(SPEEDY GONZALES)3,(OH CAROL噢開羅)4,(RHYTHM OF THE RAIN雨的節奏)5,(HEARTACHES AT SWEET SIXTEEN)6,(I'M GONNA KNOCK ON YOUR DOOR)7,(LIPSTICK ON YOUR COLLAR)"
    PERFORMER "鄧麗君"
    INDEX 01 15:54:66
  TRACK 07 AUDIO
    TITLE "FOR ONCE IN MY LIFE"
    PERFORMER "鄧麗君"
    INDEX 01 23:30:72
  TRACK 08 AUDIO
    TITLE "FEELING"
    PERFORMER "鄧麗君"
    INDEX 01 25:54:41
  TRACK 09 AUDIO
    TITLE "阿裏山的姑娘(高山青)"
    PERFORMER "鄧麗君"
    INDEX 00 30:11:07
    INDEX 01 30:14:08
  TRACK 10 AUDIO
    TITLE "何日君再來"
    PERFORMER "鄧麗君"
    INDEX 01 33:05:04
  TRACK 11 AUDIO
    TITLE "アカシアの夢(問自己)"
    PERFORMER "鄧麗君"
    INDEX 01 35:59:45
  TRACK 12 AUDIO
    TITLE "夜のフェリーボート(你在我心中)"
    PERFORMER "鄧麗君"
    INDEX 01 38:56:66
  TRACK 13 AUDIO
    TITLE "雨に咲く花(雨夜花)B.G.M"
    PERFORMER "鄧麗君"
    INDEX 01 42:17:70
  TRACK 14 AUDIO
    TITLE "ふるさとはどこですか(結束曲)小村之戀"
    PERFORMER "鄧麗君"
    INDEX 01 43:35:24


不影响播发.

草原羔羊
作者:草原羔羊(1138)   一代歌后  发表于:2009-5-6 9:36:00 收藏到个人文件夹  到顶部  返回

19楼

回复:1977年新桥演唱会[wav格式]
羔羊发的东西还是不错的
作者:hangxu139(7)   出道新人  发表于:2009-10-21 11:24:00 收藏到个人文件夹  到顶部  返回

20楼

回复:1977年新桥演唱会[wav格式]

楼主是天大的好人!

作者:念君女孩(27)   当红歌手  发表于:2011-2-20 22:03:00 收藏到个人文件夹  到顶部  返回

21楼

回复:1977年新桥演唱会[wav格式]
没听过,先谢谢楼主了。
作者:邓密(80)   天王巨星  发表于:2011-2-21 7:36:00 收藏到个人文件夹  到顶部  返回

22楼

回复:1977年新桥演唱会[wav格式]
八四年就听过星星宝丽金,据说里面的"高山青"和"何日君再来"就是这场演唱会的现场录音.非常喜欢该专辑,谢谢分享!
作者:mrhaiyun(12)   当红歌手  发表于:2011-2-22 21:34:00 收藏到个人文件夹  到顶部  返回

23楼

回复:1977年新桥演唱会[wav格式]
谢谢分享!
作者:jcabctb(47)   一代歌后  发表于:2012-4-11 8:46:00 收藏到个人文件夹  到顶部  返回

24楼

回复:1977年新桥演唱会[wav格式]
超喜欢的一张邓丽君大碟,收藏一张是一张,谢谢推荐!
作者:musiccoffe(3)   出道新人  发表于:2012-6-10 22:57:00 收藏到个人文件夹  到顶部  返回

25楼

回复:1977年新桥演唱会[wav格式]

辛苦了 万分感谢

作者:君之乐迷(45)   当红歌手  发表于:2013-10-19 2:32:00 收藏到个人文件夹  到顶部  返回

26楼

回复:1977年新桥演唱会[wav格式]
离心泵 污泥螺杆泵 螺杆泵 磁力泵 多级泵 化工泵 化工离心泵 多级离心泵 氟塑料磁力泵 潜水泵 液下泵 隔膜计量泵 螺杆泵 化工泵 磁力泵 多级泵 离心泵 化工离心泵 多级离心泵 污泥螺杆泵 氟塑料磁力泵 全焊接球阀 埋地全焊接球阀 直埋全焊接球阀 焊接球阀
作者:patebeng(116)   国内红星  发表于:2020-3-11 15:44:00 收藏到个人文件夹  到顶部  返回

27楼

回复:1977年新桥演唱会[wav格式]
离心泵 污泥螺杆泵 螺杆泵 磁力泵 多级泵 化工泵 化工离心泵 多级离心泵 氟塑料磁力泵 潜水泵 液下泵 隔膜计量泵 螺杆泵 化工泵 磁力泵 多级泵 离心泵 化工离心泵 多级离心泵 污泥螺杆泵 氟塑料磁力泵 全焊接球阀 埋地全焊接球阀 直埋全焊接球阀 焊接球阀
作者:patebeng(116)   国内红星  发表于:2020-3-11 15:53:00 收藏到个人文件夹  到顶部  返回

28楼

回复:1977年新桥演唱会[wav格式]
上海帕特泵业制造有限公司是一家有着近20年经验的专业流体机械制造商,致力于行业内高品质流体工业产品的研制、开发、制造与销售服务的综合性企业。 离心泵 磁力泵 螺杆泵 污泥螺杆泵 磁力驱动泵 化工泵厂 多级离心泵 化工离心泵 螺杆油泵 G型螺杆泵 螺杆泵厂家 螺杆泵厂 上海螺杆泵 焊接球阀 全焊接球阀 直埋全焊接球阀 埋地全焊接球阀 耐腐蚀化工泵 磁力齿轮泵 多级泵 化工泵 卫生螺杆泵 离心泵 多级泵 磁力泵 螺杆泵 化工离心泵 焊接球阀 供暖焊接球阀 法兰焊接球阀 上海焊接球阀 Direct Buried Fully Welded Ball Valve Fully Welded Ball Valve Welded Ball Valve Welded Ball Valve for sales Fully Welded Ball Valve for sales lange Welded Ball Valve 螺杆泵 磁力泵 多级离心泵 化工离心泵 污泥螺杆泵 使用户获得大的利益。帕特泵业都能够为您的需求提供适合的产品与完美服务,联系电话:021-56386999 邮箱:xsy@ptcm.com
作者:kamailong(30)   当红歌手  发表于:2020-7-31 10:48:00 收藏到个人文件夹  到顶部  返回

未注册用户或未登录或登录超时操作均无法发表或回复!