当前位置:邓丽君论坛BBS

说明 

首页 | 邓丽君档案 | 邓丽君生平 | 筠园 | 邓丽君照片 | 邓丽君歌曲 | 邓丽君歌曲伴奏 | 邓丽君视频 | 影音珍藏 | 邓丽君专辑 | 君曲乐辑 | 待审 | 资源统计 | 献花给邓丽君
关于 | F A Q | 郑重声明 | 联系站长 | 域名空间 | 公共FTP | 公共信箱 | 相关网站 | 歌谱图片 | 翻唱君曲 | 怀念诗文 | 怀念作品 | 山寨版 | 君曲排行 | 个人文件夹 | 论坛
用户名: 密码: 注册 取回密码 论坛已经开通,欢迎大家踊跃灌水!请您先注册成为会员!
论坛分类
· 站务公告 ·FAQ
· 月亮之心
· 网友交流
· 灌水乐园
· 歌谱专栏
· 照片专栏
· 翻唱专栏
· 视频专栏
· 影音珍藏
· 专辑专栏
· 君曲乐辑
· 怀念诗文
· 怀念作品
歌曲上传 ·待审
网友信息
短信管理
资料修改
个性设置
我的最爱
 
帮 助
退 出
今日献花(6)前6名
倾听君音
36.110.199.*
42.101.216.*
fansonro
cat099
脆弱的心

邓丽君成名金曲尽精英第3集 - 怀念邓丽君 - 福建·漳州·芗江居 - 邓丽君论坛BBS - 歌曲MP3下载 - 演奏曲MP3 - TERESA TENG
楼主 邓丽君成名金曲尽精英第3集 收藏到个人文件夹 回复:28 阅读:5509
邓丽君成名金曲尽精英第3集,数据压缩包RAR(加密),未破解状态.要的举个手.
作者:kyo(281)   一代歌后  发表于:2009-4-29 15:06:00 月亮之心 收藏到个人文件夹  到顶部  返回

1楼

回复:邓丽君成名金曲尽精英第3集

拿出列表看看,谢谢!

草原羔羊
作者:草原羔羊(1138)   一代歌后  发表于:2009-4-29 15:41:00 收藏到个人文件夹  到顶部  返回

2楼

回复:邓丽君成名金曲尽精英第3集
支持
作者:bbscsws(2)   出道新人  发表于:2009-4-29 16:20:00 收藏到个人文件夹  到顶部  返回

3楼

回复:邓丽君成名金曲尽精英第3集
举个手
作者:zhubernard(4)   出道新人  发表于:2009-4-29 17:14:00 收藏到个人文件夹  到顶部  返回

4楼

回复:邓丽君成名金曲尽精英第3集
这套的价格不便宜
作者:阿其(5)   出道新人  发表于:2009-4-29 18:46:00 收藏到个人文件夹  到顶部  返回

5楼

回复:邓丽君成名金曲尽精英第3集

恩 要的请留个QQ号我传过去

作者:kyo(281)   一代歌后  发表于:2009-4-29 20:12:00 收藏到个人文件夹  到顶部  返回

6楼

回复:邓丽君成名金曲尽精英第3集
喜欢呐,谢谢
作者:冰雪(25)   当红歌手  发表于:2009-4-30 7:14:00 收藏到个人文件夹  到顶部  返回

7楼

回复:邓丽君成名金曲尽精英第3集
鄧麗君成名金曲盡精英 (第三集) 民歌精選

01 新桃花江

02 鳳陽花鼓
03 薔薇處處開
04 彩虹妹妹
05 小放牛
06 媽媽我是個好娃娃
07 姑娘和傻瓜
08 泥娃娃
09 九個郎
10 我還是永遠愛著你
11 好預兆
12 百鳥朝鳳
13 高山青
14 踏雪尋梅
15 蒙古牧歌
16 爸爸愛媽媽
17 作針線
18 嘿娃娃
19 小姑娘賣西瓜
20 往日的時光
21 知道不知道
作者:冰雪(25)   当红歌手  发表于:2009-4-30 7:20:00 收藏到个人文件夹  到顶部  返回

8楼

回复:邓丽君成名金曲尽精英第3集

请大家到http://x.soso.com/自己下载   数据压缩包RAR(加密),

作者:kyo(281)   一代歌后  发表于:2009-4-30 9:07:00 收藏到个人文件夹  到顶部  返回

9楼

回复:邓丽君成名金曲尽精英第3集

请问密码是多少?

但愿人长久,千里共婵娟。
作者:但愿人长久(472)   一代歌后  发表于:2009-5-8 13:33:00 收藏到个人文件夹  到顶部  返回

10楼

回复:邓丽君成名金曲尽精英第3集

数据压缩包RAR(加密),未破解状态.等待高人来破解!羔羊兄可以办到吗?大家都拜托你了!

作者:kyo(281)   一代歌后  发表于:2009-5-8 19:06:00 收藏到个人文件夹  到顶部  返回

11楼

回复:邓丽君成名金曲尽精英第3集

呵呵,设了一个谜让大家猜.

作者:鲨鱼头(153)   天王巨星  发表于:2009-5-9 8:04:00 收藏到个人文件夹  到顶部  返回

12楼

回复:邓丽君成名金曲尽精英第3集
http://www.hdcdape.com/viewthread.php?tid=90523&highlight=%B5%CB%C0%F6%BE%FD


[WAV]邓丽君 - 成名金曲尽精英 (三洋版) [elannic原味原创][RF]


专辑介绍】
【唱片名称】:邓丽君 - 成名金曲尽精英
【唱片公司】:香港瑞成
【出版日期】:1987
【圈内编号】:SS008 B8319B
【发行地区】:香港
【专辑类型】:精选
【语    言】:国语
【格    式】:WAV/整轨


 



 

但愿人长久,千里共婵娟。
作者:但愿人长久(472)   一代歌后  发表于:2009-11-27 15:23:00 收藏到个人文件夹  到顶部  返回

13楼

回复:邓丽君成名金曲尽精英第3集
http://www.hdcdape.com/viewthread.php?tid=90606&highlight=%B5%CB%C0%F6%BE%FD

邓丽君--成名金曲尽精英(第二集)


EAC 抓取日志文件从24. 九月 2009, 20:24 用于 CD
/
使用驱动器  :PIONEER DVD-RW  DVR-110   Adapter: 0  ID: 0
读取模式    :不使用 C2,使用精确流, 禁用缓存的安全模式
组合读写偏移校正:0
读取 Lead-In 和 Lead-Out : 否
所用输出模式:内部 WAV 函数
                     44.100 Hz;16 Bit;立体声
其他选项    :
    用静音填充抓取中丢失偏移的采样 : 是
    去除首尾静音块 : 否
    Win NT 及 2000 本地 Win32 接口

范围状态及错误
已选择范围
     文件名 F:\邓丽君--成名金曲尽精英第二集\CDImage.wav
     峰值电平 99.7 %
     范围质量 100.0 %
     CRC 8324D79D
     复制成功
没有错误发生
状态报告结尾

PERFORMER "邓丽君"
TITLE "成名金曲尽精英2"
FILE "CDImage.ape" WAVE
  TRACK 01 AUDIO
    TITLE "采红菱"
    PERFORMER "邓丽君"
    INDEX 01 00:00:00
  TRACK 02 AUDIO
    TITLE "乡村姑娘"
    PERFORMER "邓丽君"
    INDEX 00 02:27:63
    INDEX 01 02:28:60
  TRACK 03 AUDIO
    TITLE "快走到我的面前来"
    PERFORMER "邓丽君"
    INDEX 00 04:40:28
    INDEX 01 04:41:45
  TRACK 04 AUDIO
    TITLE "碧兰村的姑娘"
    PERFORMER "邓丽君"
    INDEX 00 06:56:32
    INDEX 01 06:57:02
  TRACK 05 AUDIO
    TITLE "竹舞"
    PERFORMER "邓丽君"
    INDEX 00 09:01:55
    INDEX 01 09:02:30
  TRACK 06 AUDIO
    TITLE "沙里洪巴"
    PERFORMER "邓丽君"
    INDEX 00 11:39:47
    INDEX 01 11:40:32
  TRACK 07 AUDIO
    TITLE "卖馄饨"
    PERFORMER "邓丽君"
    INDEX 00 13:38:50
    INDEX 01 13:40:00
  TRACK 08 AUDIO
    TITLE "跟你开玩笑"
    PERFORMER "邓丽君"
    INDEX 00 15:43:42
    INDEX 01 15:44:62
  TRACK 09 AUDIO
    TITLE "茶里青"
    PERFORMER "邓丽君"
    INDEX 00 17:52:08
    INDEX 01 17:53:25
  TRACK 10 AUDIO
    TITLE "雪里红"
    PERFORMER "邓丽君"
    INDEX 00 20:27:38
    INDEX 01 20:28:40
  TRACK 11 AUDIO
    TITLE "黄昏小唱"
    PERFORMER "邓丽君"
    INDEX 00 23:32:00
    INDEX 01 23:33:45
  TRACK 12 AUDIO
    TITLE "月桃花"
    PERFORMER "邓丽君"
    INDEX 00 26:57:30
    INDEX 01 26:58:60
  TRACK 13 AUDIO
    TITLE "八个娃娃"
    PERFORMER "邓丽君"
    INDEX 00 30:20:42
    INDEX 01 30:21:47
  TRACK 14 AUDIO
    TITLE "茶山姑娘"
    PERFORMER "邓丽君"
    INDEX 00 33:00:07
    INDEX 01 33:01:52
  TRACK 15 AUDIO
    TITLE "心爱的娃娃"
    PERFORMER "邓丽君"
    INDEX 00 35:52:03
    INDEX 01 35:53:55
  TRACK 16 AUDIO
    TITLE "打锣打鼓"
    PERFORMER "邓丽君"
    INDEX 00 38:22:27
    INDEX 01 38:24:37
  TRACK 17 AUDIO
    TITLE "情哥哥"
    PERFORMER "邓丽君"
    INDEX 00 40:59:25
    INDEX 01 41:00:27
  TRACK 18 AUDIO
    TITLE "露珠儿"
    PERFORMER "邓丽君"
    INDEX 00 43:09:40
    INDEX 01 43:10:30
  TRACK 19 AUDIO
    TITLE "真稀奇"
    PERFORMER "邓丽君"
    INDEX 00 46:33:52
    INDEX 01 46:34:42
  TRACK 20 AUDIO
    TITLE "你真美"
    PERFORMER "邓丽君"
    INDEX 00 49:13:70
    INDEX 01 49:14:62
  TRACK 21 AUDIO
    TITLE "关达拉美拉"
    PERFORMER "邓丽君"
    INDEX 00 52:00:10
    INDEX 01 52:00:47
但愿人长久,千里共婵娟。
作者:但愿人长久(472)   一代歌后  发表于:2009-11-27 15:36:00 收藏到个人文件夹  到顶部  返回

14楼

回复:邓丽君成名金曲尽精英第3集
欣赏
鄧麗君成名金曲盡精英第4集(瑞成P+O盘)




http://www.hdcdape.com/viewthread.php?tid=93873&highlight=%B3%C9%C3%FB%BD%F0%C7%FA


[APE][鄧麗君-成名金曲盡精英(第六集)][香港版][hfjtun][原创]


专辑名称:鄧麗君-成名金曲盡精英(第六集)
语言:国语
歌手:邓丽君
唱片公司:瑞成唱片
出版时间:1990年


1、一見你就笑
2、一吻定情
3、戀愛季節
4、我還是永遠愛着你
5、悲觀人生
6、愛情像氣球
7、不老的爸爸
8、戀愛的人多幸福
9、好媽媽
10、誰要你理睬
11、再會吧叮噹
12、幸福在這裡
13、一年又一年
14、拉薩沙喲
15、山東曼波
16、孤兒淚
17、台北紅玫瑰
18、得不到的愛情
19、吾師吾愛
20、愛的歌聲
21、薔薇姑娘




 



 

但愿人长久,千里共婵娟。
作者:但愿人长久(472)   一代歌后  发表于:2009-11-27 15:53:00 收藏到个人文件夹  到顶部  返回

15楼

回复:邓丽君成名金曲尽精英第3集
 站长大人,鄧麗君成名金曲盡精英第4集(瑞成P+O盘),我有原盘,请联系QQ:759356803  还未抓数据,请给我点时间
 
作者:kyo(281)   一代歌后  发表于:2009-11-27 20:37:00 收藏到个人文件夹  到顶部  返回

16楼

回复:邓丽君成名金曲尽精英第3集
近日会把数据传于网盘 www.rayfile.com 
作者:kyo(281)   一代歌后  发表于:2009-11-27 20:47:00 收藏到个人文件夹  到顶部  返回

17楼

回复:邓丽君成名金曲尽精英第3集
期待你的链接。
但愿人长久,千里共婵娟。
作者:但愿人长久(472)   一代歌后  发表于:2009-11-27 21:19:00 收藏到个人文件夹  到顶部  返回

18楼

回复:邓丽君成名金曲尽精英第3集
邓丽君成名金曲尽精英(第二集)
http://www.cdhall.com/asp/Zhuanji.asp?txtZhuanji=%B5%CB%C0%F6%BE%FD%B3%C9%C3%FB%BD%F0%C7%FA%BE%A1%BE%AB%D3%A2%A3%A8%B5%DA%B6%FE%BC%AF%A3%A9

邓丽君成名金曲尽精英(第三集)
http://www.cdhall.com/asp/Zhuanji.asp?txtZhuanji=%B5%CB%C0%F6%BE%FD%B3%C9%C3%FB%BD%F0%C7%FA%BE%A1%BE%AB%D3%A2%A3%A8%B5%DA%C8%FD%BC%AF%A3%A9

邓丽君成名金曲尽精英(第五集)
http://www.cdhall.com/asp/Zhuanji.asp?txtZhuanji=%B5%CB%C0%F6%BE%FD%B3%C9%C3%FB%BD%F0%C7%FA%BE%A1%BE%AB%D3%A2%A3%A8%B5%DA%CE%E5%BC%AF%A3%A9

邓丽君成名金曲尽精英(第六集)
http://www.cdhall.com/asp/Zhuanji.asp?txtZhuanji=%B5%CB%C0%F6%BE%FD%B3%C9%C3%FB%BD%F0%C7%FA%BE%A1%BE%AB%D3%A2%A3%A8%B5%DA%C1%F9%BC%AF%A3%A9
但愿人长久,千里共婵娟。
作者:但愿人长久(472)   一代歌后  发表于:2009-11-27 21:22:00 收藏到个人文件夹  到顶部  返回

19楼

回复:邓丽君成名金曲尽精英第3集
期待你的链接。
但愿人长久,千里共婵娟。
作者:但愿人长久(472)   一代歌后  发表于:2009-11-27 21:29:00 收藏到个人文件夹  到顶部  返回

20楼

回复:邓丽君成名金曲尽精英第3集
期待你的链接。
但愿人长久,千里共婵娟。
作者:但愿人长久(472)   一代歌后  发表于:2009-11-27 21:30:00 收藏到个人文件夹  到顶部  返回

21楼

回复:邓丽君成名金曲尽精英第3集
下载地址: http://www.rayfile.com/zh-cn/files/25d57833-dbc9-11de-aded-0014221b798a/ 
作者:kyo(281)   一代歌后  发表于:2009-11-28 10:59:00 收藏到个人文件夹  到顶部  返回

22楼

回复:邓丽君成名金曲尽精英第3集

这套CD共收录了126首宇宙时期的歌曲,录音很差,音质并不好,而金装纪念专辑共收录了96首,宇宙时期的歌曲专辑并不稀奇啊,日本不是还在出版吗?再说了这6CD根本不可能完整上传的,想破解RAR啊?做梦!!!

全球华人的耳朵,天下谁人不识君
作者:TT006(251)   一代歌后  发表于:2009-11-29 8:50:00 收藏到个人文件夹  到顶部  返回

23楼

回复:邓丽君成名金曲尽精英第3集
谢谢kyo的链接!! 不过为什么下到0.25%就不下了???
TT006说的对,音质的确不好。
但愿人长久,千里共婵娟。
作者:但愿人长久(472)   一代歌后  发表于:2009-11-29 21:39:00 收藏到个人文件夹  到顶部  返回

24楼

回复:邓丽君成名金曲尽精英第3集
又动了点,下起来还是蛮吃力的。
但愿人长久,千里共婵娟。
作者:但愿人长久(472)   一代歌后  发表于:2009-11-29 23:33:00 收藏到个人文件夹  到顶部  返回

25楼

回复:邓丽君成名金曲尽精英第3集
很漂亮的碟,下起来太慢了!
作者:枫叶飘飘(59)   国内红星  发表于:2009-11-30 10:20:00 收藏到个人文件夹  到顶部  返回

26楼

回复:邓丽君成名金曲尽精英第3集
kyo你好:
    邓丽君成名金曲尽精英(第六集)已下载成功。谢谢了!!!
    不过,想提两个小小意见。为何是分轨?还有就是图片似乎太小了点,像素可否再拍大一点,上传芗江居,谢谢!!!
但愿人长久,千里共婵娟。
作者:但愿人长久(472)   一代歌后  发表于:2009-11-30 12:26:00 收藏到个人文件夹  到顶部  返回

27楼

回复:邓丽君成名金曲尽精英第3集

不错,多上传

作者:dqxa(29)   当红歌手  发表于:2009-11-30 18:28:00 收藏到个人文件夹  到顶部  返回

28楼

回复:邓丽君成名金曲尽精英第3集
球阀哪家品质好?当然是卡麦隆阀门

全焊接球阀哪家品质好?当然是卡麦隆阀门

焊接球阀哪家品质好?当然是卡麦隆阀门

直埋全焊接球阀哪家品质好?当然是卡麦隆阀门

埋地全焊接球阀哪家品质好?当然是卡麦隆阀门

离心泵哪家品质好?当然是上海帕特泵业,联系电话:021-56386999

多级泵哪家品质好?当然是上海帕特泵业,联系电话:021-56386999

磁力泵哪家品质好?当然是上海帕特泵业,联系电话:021-56386999

螺杆泵哪家品质好?当然是上海帕特泵业,联系电话:021-56386999

化工泵哪家品质好?当然是上海帕特泵业,联系电话:021-56386999

化工泵哪家品质好?当然是上海帕特泵业,联系电话:021-56386999

多级泵哪家品质好?当然是上海帕特泵业,联系电话:021-56386999

离心泵哪家品质好?当然是上海帕特泵业,联系电话:021-56386999

磁力泵哪家品质好?当然是上海帕特泵业,联系电话:021-56386999

螺杆泵哪家品质好?当然是上海帕特泵业,联系电话:021-56386999

污泥螺杆泵哪家品质好?当然是上海帕特泵业,联系电话:021-56386999

氟塑料磁力泵哪家品质好?当然是上海帕特泵业,联系电话:021-56386999

化工泵厂哪家品质好?当然是上海帕特泵业,联系电话:021-56386999

多级离心泵哪家品质好?当然是上海帕特泵业,联系电话:021-56386999

化工离心泵哪家品质好?当然是上海帕特泵业,联系电话:021-56386999

螺杆油泵哪家品质好?当然是上海帕特泵业,联系电话:021-56386999

G型螺杆泵哪家品质好?当然是上海帕特泵业,联系电话:021-56386999

螺杆泵厂家哪家品质好?当然是上海帕特泵业,联系电话:021-56386999

螺杆泵厂哪家品质好?当然是上海帕特泵业,联系电话:021-56386999

上海螺杆泵哪家品质好?当然是上海帕特泵业,联系电话:021-56386999

耐腐蚀化工泵哪家品质好?当然是上海帕特泵业,联系电话:021-56386999

氟塑料磁力泵哪家品质好?当然是上海帕特泵业,联系电话:021-56386999

不锈钢离心泵哪家品质好?当然是上海帕特泵业,联系电话:021-56386999

焊接球阀哪家品质好?当然是上海伯纳德,联系电话:021-56386999

直埋焊接球阀哪家品质好?当然是上海伯纳德,联系电话:021-56386999

埋地焊接球阀哪家品质好?当然是上海伯纳德,联系电话:021-56386999

全焊接球阀哪家品质好?当然是上海伯纳德,联系电话:021-56386999

Fully Welded Ball Valve92 Welded Ball Valve122 Direct Buried Welded Ball Valve

7 Direct Buried Fully Welded Ball Valve4 Welded Ball Valve for sales98 Fully Welded Ball Valve for sales58 螺杆泵哪家品质好?当然是上海帕特泵业,联系电话:021-56386999

磁力泵哪家品质好?当然是上海帕特泵业,联系电话:021-56386999

化工泵哪家品质好?当然是上海帕特泵业,联系电话:021-56386999

离心泵哪家品质好?当然是上海帕特泵业,联系电话:021-56386999

隔膜泵哪家品质好?当然是上海帕特泵业,联系电话:021-56386999
作者:patebeng(116)   国内红星  发表于:2020-9-1 9:24:00 收藏到个人文件夹  到顶部  返回

未注册用户或未登录或登录超时操作均无法发表或回复!